Sl-warez.4umer.Com

[SD]Vaishali 2011 Telugu BR.Rip 720px264.AAC.990MB-KaSuN

View previous topic View next topic Go down

[SD]Vaishali 2011 Telugu BR.Rip 720px264.AAC.990MB-KaSuN

Post by Admin on Mon Jan 28, 2013 6:12 pm

[You must be registered and logged in to see this image.]

[SD]Vaishali 2011 Telugu BR.Rip 720px264.AAC.990MB-KaSuN

[You must be registered and logged in to see this image.]

[You must be registered and logged in to see this image.]

[You must be registered and logged in to see this image.]

[You must be registered and logged in to see this image.]

[You must be registered and logged in to see this image.]

[You must be registered and logged in to see this image.]

[You must be registered and logged in to see this image.]

[You must be registered and logged in to see this image.]

[You must be registered and logged in to see this image.]

[You must be registered and logged in to see this image.]

[You must be registered and logged in to see this image.]

[You must be registered and logged in to see this image.]

[You must be registered and logged in to see this image.]

[You must be registered and logged in to see this image.]
Code:
General
Complete name                            : Vaishali 2011 Telugu BR.Rip 720px264.AAC-KaSuN.mp4
Format                                  : MPEG-4
Format profile                          : Base Media
Codec ID                                : isom
File size                                : 1 015 MiB
Duration                                : 2h 21mn
Overall bit rate mode                    : Variable
Overall bit rate                        : 1 006 Kbps
Encoded date                            : UTC 2012-03-31 03:56:43
Tagged date                              : UTC 2012-03-31 03:56:43

Video
ID                                      : 1
Format                                  : AVC
Format/Info                              : Advanced Video Codec
Format profile                          : High@L4.1
Format settings, CABAC                  : Yes
Format settings, ReFrames                : 9 frames
Codec ID                                : avc1
Codec ID/Info                            : Advanced Video Coding
Duration                                : 2h 21mn
Bit rate                                : 906 Kbps
Maximum bit rate                        : 6 479 Kbps
Width                                    : 1 280 pixels
Height                                  : 544 pixels
Display aspect ratio                    : 2.35:1
Frame rate mode                          : Constant
Frame rate                              : 24.000 fps
Color space                              : YUV
Chroma subsampling                      : 4:2:0
Bit depth                                : 8 bits
Scan type                                : Progressive
Bits/(Pixel*Frame)                      : 0.054
Stream size                              : 914 MiB (90%)
Writing library                          : x264 core 120 r2120 0c7dab9

Audio
ID                                      : 2
Format                                  : AAC
Format/Info                              : Advanced Audio Codec
Format profile                          : LC
Codec ID                                : 40
Duration                                : 2h 21mn
Bit rate mode                            : Variable
Bit rate                                : 96.0 Kbps
Maximum bit rate                        : 106 Kbps
Channel(s)                              : 2 channels
Channel positions                        : Front: L R
Sampling rate                            : 48.0 KHz
Compression mode                        : Lossy
Stream size                              : 96.8 MiB (10%)
Encoded date                            : UTC 2012-03-31 03:57:15
Tagged date                              : UTC 2012-03-31 03:57:19

[You must be registered and logged in to see this image.]
[You must be registered and logged in to see this image.]

Code:
https://safelinking.net/d/8fbdab7301

[You must be registered and logged in to see this image.]
[You must be registered and logged in to see this image.]

Admin
Admin
Admin

Posts : 466
Join date : 2012-09-15
Age : 23
Location : Moratuwa

View user profile http://sl-warez.4umer.com

Back to top Go down

View previous topic View next topic Back to top

- Similar topics

 
Permissions in this forum:
You cannot reply to topics in this forum