Sl-warez.4umer.Com

[SD]The.Expendables.2.2012.1080.BDrip.Frank

View previous topic View next topic Go down

[SD]The.Expendables.2.2012.1080.BDrip.Frank

Post by Frank on Fri Nov 30, 2012 4:20 pm

[SD]The.Expendables.2.2012.1080.BDrip.Frank

[You must be registered and logged in to see this image.]


    Thanks For Visiting to my Topic
    Time is running - We Can't Stop it.
    Mistakes Happens - We can't correct.
    Doing good things - We can admire.

    Use the Download Links From My Website.. It will Help Me...
    [You must be registered and logged in to see this link.]

    My RapidShare account ID: 15528713

    Thanks In Advance Smile



[You must be registered and logged in to see this image.]

[You must be registered and logged in to see this image.]

[You must be registered and logged in to see this image.]

[You must be registered and logged in to see this image.]

[You must be registered and logged in to see this image.]

[You must be registered and logged in to see this image.]

[You must be registered and logged in to see this image.]

[You must be registered and logged in to see this image.]

Code:
General
Complete name                            : The.Expendables.2.2012.1080.BDrip.Frank
Format                                  : MPEG-4
Format profile                          : Base Media
Codec ID                                : isom
File size                                : 1.50 GiB
Duration                                : 1h 38mn
Overall bit rate                        : 2 189 Kbps

Video
ID                                      : 1
Format                                  : AVC
Format/Info                              : Advanced Video Codec
Format profile                          : High@L4.0
Format settings, CABAC                  : Yes
Format settings, ReFrames                : 5 frames
Codec ID                                : avc1
Codec ID/Info                            : Advanced Video Coding
Duration                                : 1h 38mn
Bit rate                                : 2 095 Kbps
Maximum bit rate                        : 13.3 Mbps
Width                                    : 1 920 pixels
Height                                  : 804 pixels
Display aspect ratio                    : 2.40:1
Frame rate mode                          : Constant
Frame rate                              : 25.000 fps
Color space                              : YUV
Chroma subsampling                      : 4:2:0
Bit depth                                : 8 bits
Scan type                                : Progressive
Bits/(Pixel*Frame)                      : 0.054
Stream size                              : 1.43 GiB (96%)
Writing library                          : x264 core 125 r2200 999b753
Audio
ID                                      : 2
Format                                  : AAC
Format/Info                              : Advanced Audio Codec
Format profile                          : LC
Codec ID                                : 40
Duration                                : 1h 38mn
Bit rate mode                            : Variable
Bit rate                                : 92.0 Kbps
Maximum bit rate                        : 101 Kbps
Channel(s)                              : 2 channels
Channel positions                        : Front: L R
Sampling rate                            : 48.0 KHz
Compression mode                        : Lossy
Stream size                              : 64.5 MiB (4%)
Language                                : English

[You must be registered and logged in to see this image.]

[You must be registered and logged in to see this link.]

[You must be registered and logged in to see this image.]



Frank
Admin
Admin

Posts : 263
Join date : 2012-09-15

View user profile

Back to top Go down

View previous topic View next topic Back to top

- Similar topics

 
Permissions in this forum:
You cannot reply to topics in this forum